<?xml version="1.0" standalone="no"?>
<!DOCTYPE svg PUBLIC "-//W3C//DTD SVG 1.1//EN" "http://www.w3.org/Graphics/SVG/1.1/DTD/svg11.dtd" >
<svg xmlns="http://www.w3.org/2000/svg">
<metadata>Generated by IcoMoon</metadata>
<defs>
<font id="icomoon" horiz-adv-x="1024">
<font-face units-per-em="1024" ascent="960" descent="-64" />
<missing-glyph horiz-adv-x="1024" />
<glyph unicode="&#x20;" horiz-adv-x="512" d="" />
<glyph unicode="&#xe900;" glyph-name="success" d="M0 447.968c0.437 282.577 229.392 511.532 511.927 511.968h0.041c282.577-0.437 511.532-229.392 511.968-511.927v-0.041c-0.327-282.62-229.347-511.64-511.936-511.968h-0.032c-282.62 0.327-511.64 229.347-511.968 511.936v0.032zM127.992 447.968c0.182-211.991 171.985-383.794 383.958-383.976h0.018c211.976 0.218 383.758 172 383.976 383.955v0.021c-0.291 211.947-172.029 383.685-383.948 383.976h-0.028c-211.947-0.291-383.685-172.029-383.976-383.948v-0.028zM383.976 255.98v63.996h-63.996v63.996h-63.996v127.992h127.992v-63.996h127.992v63.996h63.996v63.996h63.996v63.996h127.992v-127.992h-63.996v-63.996h-63.996v-63.996h-63.996v-63.996h-63.996v-63.996z" />
<glyph unicode="&#xe901;" glyph-name="error" d="M512-64.047c-282.25 0-512 229.734-512 512s229.75 512.016 512 512.016c282.25 0 512-229.75 512-512.016s-229.75-512-512-512zM186.375 651.125c-36.938-58.969-58.313-128.641-58.313-203.172 0-211.641 172.313-383.938 383.938-383.938 74.563 0 144.188 21.375 203.188 58.297l-528.813 528.813zM512 831.906c-90.938 0-174.625-31.828-240.5-84.906l539.563-539.531c53.063 65.859 84.875 149.547 84.875 240.484 0 211.641-172.25 383.953-383.938 383.953z" />
<glyph unicode="&#xe902;" glyph-name="warning" d="M0 448.064c0.291 282.653 229.347 511.709 511.972 512h0.028c282.653-0.291 511.709-229.347 512-511.972v-0.028c-0.364-282.623-229.377-511.636-511.965-512h-0.035c-282.623 0.364-511.636 229.377-512 511.965v0.035zM128 448.064c0.255-211.975 172.025-383.745 383.975-384h0.025c211.975 0.255 383.745 172.025 384 383.975v0.025c-0.291 211.96-172.040 383.709-383.972 384h-0.028c-211.96-0.291-383.709-172.040-384-383.972v-0.028zM448 192.064v128h128v-128zM448 384.064v320h128v-320z" />
<glyph unicode="&#xe903;" glyph-name="cart" horiz-adv-x="910" d="M910.222 694.5c0 24.618-7.987 48.572-22.756 68.267l-130.844 174.478c-5.296 7.065-12.169 12.8-20.070 16.75-7.896 3.95-16.612 6.006-25.441 6.006h-512c-8.832 0-17.542-2.056-25.441-6.006s-14.771-9.684-20.070-16.75l-130.844-174.478c-14.771-19.694-22.756-43.649-22.756-68.267v-587.833c0-45.261 17.981-88.673 49.987-120.678s75.416-49.988 120.68-49.988h568.889c45.261 0 88.673 17.983 120.678 49.988s49.988 75.418 49.988 120.678v587.833zM796.444 618.667v-455.111c0-30.174-11.986-59.113-33.326-80.452s-50.278-33.326-80.452-33.326h-455.111c-30.176 0-59.116 11.986-80.453 33.326s-33.325 50.278-33.325 80.452v455.111h682.667zM773.689 732.444h-637.156l91.022 113.778h455.111l91.022-113.778zM682.667 448c0 15.088-5.996 29.558-16.663 40.227s-25.139 16.662-40.226 16.662c-15.087 0-29.559-5.994-40.226-16.662s-16.663-25.139-16.663-40.227c0-30.176-11.987-59.113-33.325-80.452s-50.277-33.326-80.453-33.326c-30.176 0-59.116 11.986-80.453 33.326s-33.325 50.277-33.325 80.452c0 15.088-5.994 29.558-16.662 40.227s-25.139 16.662-40.227 16.662c-15.088 0-29.558-5.994-40.227-16.662s-16.662-25.139-16.662-40.227c0.010-44.999 13.361-88.986 38.365-126.396 25.005-37.416 60.541-66.571 102.115-83.792s87.321-21.726 131.456-12.948c44.135 8.772 84.677 30.441 116.501 62.254 42.678 42.667 66.662 100.534 66.674 160.882z" />
<glyph unicode="&#xe904;" glyph-name="calendar" d="M256 512h128v-128h-128zM384 320h-128v-128h128zM448 512h128v-128h-128zM576 320h-128v-128h128zM640 512h128v-128h-128zM768 320h-128v-128h128zM256 960h128v-192h256v192h128v-192h256v-832h-1024v832h256zM896 640h-768v-576h768z" />
<glyph unicode="&#xe905;" glyph-name="chevron-down" horiz-adv-x="1643" d="M1644.084 762.895l-822.584-822.584-822.584 822.584 192.794 192.794 629.79-629.79 629.79 629.79z" />
<glyph unicode="&#xe906;" glyph-name="close" d="M1024 856.913l-408.913-408.913 408.913-408.913-103.087-103.087-408.913 408.913-408.913-408.913-103.087 103.087 408.913 408.913-408.913 408.913 103.087 103.087 408.913-408.913 408.913 408.913z" />
<glyph unicode="&#xe907;" glyph-name="chevron-up" horiz-adv-x="1648" d="M1646.584 133.105l-822.584 822.584-822.584-822.584 192.794-192.794 629.79 629.79 629.79-629.79z" />
<glyph unicode="&#xe908;" glyph-name="chevron-right" horiz-adv-x="640" d="M124 960l512-512-512-512-120 120 392 392-392 392z" />
<glyph unicode="&#xe909;" glyph-name="chevron-left" horiz-adv-x="640" d="M636 840l-392-392 392-392-120-120-512 512 512 512z" />
<glyph unicode="&#xe90a;" glyph-name="pencil" d="M960.336 617.046l-553.718-553.846c-30.588-28.149-67.691-49.721-108.758-62.183l-1.999-0.521-244.675-61.425c-4.291-1.911-9.299-3.023-14.566-3.023-20.213 0-36.599 16.386-36.599 36.599 0 5.233 1.098 10.209 3.077 14.711l-0.092-0.235 19.195 75.693 42.229 168.918c12.9 43.153 34.486 80.335 62.882 111.143l-0.178-0.195 553.782 553.846c36.208 38.81 87.652 63.003 144.746 63.003 109.228 0 197.775-88.547 197.775-197.775 0-57.142-24.233-108.624-62.984-144.729l-0.118-0.109zM216.842 252.977c-12.296-14.708-22.222-31.912-28.881-50.664l-0.36-1.163-25.594-103.206 103.142 25.594c19.859 7.071 37.014 16.991 51.969 29.46l-0.27-0.219 436.435 436.499-2.431 2.559-97.768 97.704-436.179-436.627zM870.182 806.758c-12.796 12.747-30.448 20.627-49.94 20.627s-37.143-7.881-49.942-20.63l0.002 0.002-27.513-27.641 2.239-2.239 97.96-97.64 27.513 27.513c12.777 12.83 20.676 30.526 20.676 50.067s-7.899 37.237-20.678 50.070l0.002-0.002z" />
<glyph unicode="&#xe90b;" glyph-name="youtube" horiz-adv-x="1490" d="M744.82-64.093c-181.248 0-414.068 2.793-508.369 8.099-86.388 5.958-131.631 16.849-173.521 91.043s-63.209 204.8-63.209 412.207v0.931c0 210.385 19.456 337.734 63.209 412.951 40.401 71.401 84.247 85.085 173.708 90.205 95.046 6.33 333.172 8.564 508.183 8.564s412.486-2.234 507.718-8.564c89.46-5.12 133.399-18.618 173.335-90.205 43.846-74.473 63.395-201.728 63.395-413.137v-0.652c0-211.503-19.456-338.758-63.209-412.486-40.029-70.935-83.782-84.899-173.521-90.857-94.022-5.213-326.563-8.099-507.718-8.099zM558.639 727.18v0-558.545l465.455 279.273-465.455 279.273z" />
<glyph unicode="&#xe90c;" glyph-name="twitter" horiz-adv-x="1260" d="M1260.308 838.774c-43.313-19.437-93.564-33.776-146.191-40.522l-2.683-0.281c53.56 32.169 93.794 81.854 113.149 140.992l0.515 1.817c-47.162-28.463-102.054-50.164-160.529-61.984l-3.311-0.559c-47.258 50.322-114.216 81.668-188.495 81.668-142.684 0-258.354-115.664-258.363-258.346v-0.001c-0.009-0.814-0.014-1.775-0.014-2.738 0-19.903 2.186-39.295 6.331-57.95l-0.33 1.769c-215.366 10.812-404.831 113.227-531.588 268.771l-1.049 1.329c-22.229-37.373-35.368-82.402-35.368-130.499 0-89.169 45.159-167.791 113.854-214.243l0.913-0.582c-42.984 1.080-83.045 12.627-118.029 32.171l1.293-0.663v-2.836c0.306-124.563 88.179-228.514 205.301-253.568l1.705-0.306c-19.717-5.408-42.357-8.515-65.722-8.515-0.71 0-1.42 0.003-2.129 0.009l0.109-0.001c-1.208-0.023-2.633-0.036-4.061-0.036-15.874 0-31.37 1.619-46.331 4.701l1.476-0.254c34.383-103.332 128.922-177.065 241.089-179.981l0.339-0.007c-87.233-68.754-198.724-110.277-319.912-110.277-0.155 0-0.311 0-0.466 0h0.024c-21.847 0.047-43.301 1.534-64.327 4.371l2.493-0.275c111.312-72.704 247.603-115.952 393.995-115.952 0.834 0 1.667 0.001 2.5 0.004h-0.128c1.502-0.011 3.279-0.018 5.058-0.018 403.36 0 730.348 326.988 730.348 730.348 0 1.723-0.006 3.445-0.018 5.166l0.001-0.264c0 11.422-0.394 22.449-0.945 33.398 51.156 36.899 94.158 81.38 128.324 132.289l1.172 1.855z" />
<glyph unicode="&#xe90d;" glyph-name="thumbs-up" horiz-adv-x="1117" d="M279.273-64v651.636l372.364 372.364 78.196-53.9c13.59-13.968 21.97-33.064 21.97-54.118 0-0.087 0-0.174 0-0.261v0.013c-0.025-4.392-0.431-8.672-1.185-12.831l0.068 0.45c0-1.21 0-2.513-0.559-3.724l-98.49-247.994h465.455v-186.182l-157.603-402.991c-14.996-36.736-50.339-62.205-91.662-62.464h-0.033zM0-64v651.636h186.182v-651.636z" />
<glyph unicode="&#xe90e;" glyph-name="thumbs-down" horiz-adv-x="1117" d="M387.258-9.914c-13.533 13.943-21.877 32.989-21.877 53.984 0 0.101 0 0.202 0.001 0.304v-0.016c0.023 4.424 0.429 8.737 1.185 12.927l-0.068-0.453c0 1.117 0 2.327 0.652 3.631l98.304 247.901h-465.455v186.182l157.603 403.084c14.935 36.784 50.314 62.286 91.672 62.464h588.543v-651.636l-372.364-372.364zM930.909 308.364v651.636h186.182v-651.636z" />
<glyph unicode="&#xe90f;" glyph-name="share" d="M0 960h341.333v-170.667h-170.667v-682.667h682.667v170.667h170.667v-341.333h-1024v1024zM682.667 960h-170.667v-170.667h170.667v-85.333h-85.333v-85.333h-85.333v-85.333h-85.333v-170.667h170.667v85.333h85.333v85.333h85.333v85.333h85.333v-170.667h170.667v512h-341.333z" />
<glyph unicode="&#xe910;" glyph-name="search" d="M1007.278 33.486l-193.379 192.81c59.919 75.652 96.122 172.469 96.122 277.741 0 0.335 0 0.67-0.001 1.005v-0.052c0 251.295-203.715 455.010-455.010 455.010s-455.010-203.715-455.010-455.010c0-251.295 203.715-455.010 455.010-455.010v0c0.283-0.001 0.618-0.001 0.953-0.001 105.272 0 202.089 36.203 278.678 96.838l-0.937-0.716 192.81-193.379c10.335-10.335 24.612-16.727 40.382-16.727 31.54 0 57.109 25.569 57.109 57.109 0 15.77-6.392 30.047-16.727 40.382v0zM113.752 504.99c0 188.471 152.786 341.257 341.257 341.257s341.257-152.786 341.257-341.257c0-188.471-152.786-341.257-341.257-341.257v0c-188.471 0-341.257 152.786-341.257 341.257v0z" />
<glyph unicode="&#xe911;" glyph-name="quote" horiz-adv-x="1052" d="M294.936 44.077c-66.809-66.524-197.98-103.953-294.936-108.077v170.648c59.244 9.456 111.486 34.251 154.054 70.153l-0.471-0.387c110.523 109.869 109.499 341.864 109.385 382.080v3.214h-204.493v398.178h408.986v-369.395c1.052-36.888 4.465-369.737-172.525-546.414zM879.575 44.077c-66.809-66.666-198.008-104.095-294.822-108.077v170.648c59.244 9.456 111.486 34.251 154.054 70.153l-0.471-0.387c110.523 109.869 109.499 341.864 109.385 382.080v3.214h-204.635v398.178h409.014v-369.395c1.024-36.888 4.465-369.737-172.525-546.414z" />
<glyph unicode="&#xe912;" glyph-name="crab-fill" horiz-adv-x="1205" d="M1167.36 296.55c-21.299 8.448-59.853 16.691-82.483 23.501-47.002 13.926-44.032 0.717-73.728 1.28-7.774-0.203-16.928-0.319-26.108-0.319-55.723 0-110.449 4.267-163.869 12.492l5.964-0.756c54.016 64.717 105.574 26.675 131.533 67.482-17.869-0.922-98.509-11.213-129.997-14.848-1.721-0.538-3.699-0.848-5.75-0.848-3.423 0-6.645 0.864-9.459 2.385l0.105-0.052c3.158 0.674 7.108 1.271 11.121 1.655l0.45 0.035c23.413 9.31 43.328 19.45 62.164 31.161l-1.645-0.953c24.013 18.074 13.773 10.598 30.157 37.99 24.115 40.96 115.814 61.184 107.52 213.658-20.421-29.213-35.165-63.937-41.807-101.458l-0.228-1.556c-51.717-24.972-92.081-66.643-114.758-117.889l-0.596-1.509c-12.442 0.922-110.182 0-97.28 20.89l88.269 36.147c19.558 28.672 47.821 46.592 69.069 80.896 32.512 52.634 28.979 71.322 1.843 93.133 0.755 2.14 1.601 3.965 2.596 5.694l-0.087-0.165c21.965 38.605-37.222 85.146-43.418 95.949s-25.242 15.36-28.928 16.538 1.075 16.333 1.075 16.333c-19.189 63.483-67.338 112.796-128.686 133.224l-1.413 0.408c0.657-5.782 2.986-10.924 6.484-15.042l-0.033 0.040c5.734-6.451 39.834-31.283 52.019-45.466 11.204-19.348 20.723-41.722 27.398-65.291l0.506-2.089c-3.129-0.857-6.721-1.35-10.429-1.35-6.428 0-12.509 1.48-17.923 4.119l0.243-0.107c-5.822 3.679-9.632 10.080-9.632 17.371 0 1.777 0.226 3.502 0.652 5.146l-0.031-0.142c-8.357 0.619-16.085 2.688-23.144 5.957l0.412-0.171c-10.24 5.12-5.53 17.869-5.53 17.869-2.813-0.724-6.043-1.14-9.37-1.14s-6.556 0.416-9.64 1.198l0.27-0.058c-9.37 2.611-25.6 35.226-25.6 35.226-2.391-6.304-3.775-13.592-3.775-21.203 0-15.164 5.494-29.045 14.599-39.762l-0.073 0.088c22.381-27.247 47.24-51.115 74.631-71.81l1.094-0.792c12.698-8.806 50.176-80.589 90.47-104.397 1.331-1.434 2.509-2.918 3.635-4.198-7.311-13.643-21.471-22.766-37.762-22.766-7.602 0-14.74 1.986-20.923 5.468l0.214-0.111-10.906-37.222-19.763-2.56c-14.080-34.662-15.923-20.48-38.349-44.902-58.061-61.133-62.669-41.677-96.154-27.75-39.066 15.36-11.827-1.331-28.672 23.501-9.574 13.67-1.331 25.6-33.741 13.056 25.6 2.253 9.677-22.374 5.581-41.728-15.002-2.333-28.332-5.775-41.116-10.364l1.538 0.482c-15.743 3.262-33.836 5.13-52.365 5.13-0.815 0-1.628-0.004-2.441-0.011l0.124 0.001c-5.734 17.664-25.139 40.141 0.358 42.445-32.154 6.912-22.938-3.789-30.72-18.534-15.36-26.675 11.162-6.246-25.958-27.29-21.914-12.698-16.282-17.766-40.96-11.52-33.792 9.062-25.088 58.624-27.29 61.952-9.011 16.435-10.24 6.912-20.787 19.917-3.191 4.417-6.254 9.446-8.918 14.712l-0.298 0.648-8.397 5.683c-47.565 29.491-2.202 30.413-43.571 39.27l-34.304 23.859c1.379 1.045 2.575 2.225 3.603 3.541l0.032 0.043c17.782 19.76 33.433 42.026 46.23 66.043l0.874 1.797c2.253 13.312 8.755 24.525 30.72 42.189 37.653 30.634 68.665 67.79 91.66 109.948l0.961 1.924c1.802 3.415 2.86 7.463 2.86 11.759 0 8.633-4.273 16.267-10.819 20.904l-0.080 0.054s-16.691-29.594-18.893-35.021-21.299-7.936-21.299-7.936c-0.237-8.358-2.983-16.030-7.507-22.342l0.083 0.121c-3.164-2.953-7.425-4.767-12.11-4.767-1.91 0-3.75 0.302-5.475 0.86l0.126-0.035s-2.253-13.363-4.608-21.094-30.72-20.070-30.72-20.070c-3.738 5.877-7.056 12.638-9.607 19.765l-0.223 0.715c-3.072 9.984 31.078 54.067 46.643 76.544 9.263 13.156 20.612 24.147 33.681 32.735l0.469 0.289 5.12 8.141s-7.936 5.632-30.362-5.12c-37.702-37.132-70.776-78.79-98.389-124.139l-1.605-2.837c-16.384-24.986-77.722-110.848-77.722-110.848-0.777-4.079-1.221-8.772-1.221-13.568s0.444-9.488 1.294-14.038l-0.073 0.47c3.324-16.871 11.904-31.347 23.935-42.019l0.078-0.068c23.603-15.667 13.21-5.734 19.968-37.12 1.952-12.161 5.951-23.070 11.659-32.859l-0.242 0.449c9.114-20.48 26.163-44.288 32.563-64 30.72-13.363 33.075-52.531 33.536-91.238-25.583 8.671-46.853 24.468-62.067 45.019l-0.243 0.344c-13.875 11.674-9.523 5.12-19.2 27.29-4.454 10.65-5.888 17.715-9.421 28.109-14.49 35.84-22.784 19.354-34.918 52.89-37.888 20.48-8.038 34.56-59.75 58.214 8.303 35.831 13.82 77.525 15.328 120.24l0.032 1.155c-23.209-27.017-37.339-62.419-37.339-101.121 0-16.015 2.419-31.464 6.913-46.003l-0.293 1.102c8.433-21.966 20.73-40.729 36.209-56.33l-0.010 0.010c31.488-41.523 12.902-16.282 24.115-63.13 13.421-11.835 25.483-24.547 36.347-38.252l0.466-0.609c12.032-11.264 27.034-22.221 35.021-29.696 23.757-14.797 40.96-23.296 35.84-52.173l-40.96 9.779c-38.195 14.899-53.709 9.574-65.843 43.11-8.038 21.043-1.229 16.691-12.954 38.502-6.003 8.686-11.009 18.694-14.512 29.383l-0.234 0.825c-35.84 7.68-24.218 12.902-42.394 31.283-14.899 15.77-21.606 11.418-42.65 25.6-24.422 18.022-45.875 43.878-73.267 64.205 12.083-51.866 30.72-22.067 84.48-113.766 14.797-11.878 18.586-16.538 37.581-31.232s19.405-12.851 22.221-40.499c11.137-11.557 21.704-23.91 31.515-36.868l0.741-1.020c37.376-18.637 16.282-27.648 55.347-42.854 29.801-5.941 55.067-12.839 79.628-21.252l-4.313 1.284c-8.96-5.786-104.96-5.53-134.963-29.030l66.56-3.635c1.401 0.024 3.054 0.037 4.711 0.037 30.626 0 60.169-4.636 87.966-13.245l-2.104 0.561c7.168-2.509 29.389-11.059 36.506-13.619 29.696-14.080 13.056-1.843 20.48-21.76l-140.032-7.68c-21.835-11.406-47.69-18.097-75.109-18.097-5.301 0-10.543 0.25-15.715 0.739l0.661-0.050c-34.355-16.794-82.381 1.229-102.707-31.13-8.584-19.619-13.579-42.482-13.579-66.511 0-20.203 3.531-39.581 10.009-57.551l-0.372 1.183c22.323 132.454-3.789 81.92 102.4 112.333 32.205 24.986 25.907 22.477 75.264 19.61 31.846 4.762 54.221 15.36 91.699 19.968 32.512 3.686 66.099 8.090 97.28 11.008 0.124-1.399 0.195-3.026 0.195-4.67 0-13.394-4.71-25.688-12.563-35.316l0.080 0.101c-7.46 1.34-16.046 2.105-24.812 2.105-41.815 0-79.558-17.429-106.363-45.419l-0.051-0.053c-30.72-32.051-18.893 5.99-75.264-41.882-34.038-22.224-56.219-60.135-56.219-103.227 0-7.177 0.615-14.21 1.796-21.049l-0.104 0.731c12.032-43.11 47.206-68.096 67.584-7.731 30.72 68.762 7.066 46.797 56.32 85.504 59.75 46.080 51.507 67.635 64.563 79.36 17.142 1.5 32.93 4.671 48.035 9.39l-1.596-0.43c38.163 13.366 82.159 21.086 127.959 21.086 15.22 0 30.24-0.853 45.017-2.513l-1.814 0.166 3.021-0.512 13.414-5.12c0.881-0.327 1.899-0.516 2.961-0.516 2.179 0 4.172 0.796 5.704 2.113l-0.012-0.010 6.298 5.12c1.012 0.865 2.231 1.519 3.571 1.88l0.064 0.015c20.94 4.531 44.997 7.125 69.659 7.125 0.854 0 1.708-0.003 2.561-0.009l-0.131 0.001c62.515 5.12 40.96 11.52 83.968-7.373l56.934-12.186c4.045-17.306 9.83-39.782 14.438-54.323 5.12-29.184 21.299-35.533 42.24-59.29-5.888-59.597-13.107-61.901 13.466-104.346 85.811-7.731 77.466 134.144 35.482 172.134-19.302 17.664-28.672 10.24-44.595 29.85-16.691 20.992-0.717 14.643-26.266 39.424-59.187 56.32-43.93 23.91-104.141 30.054-3.162 10.544-4.981 22.66-4.981 35.201 0 1.917 0.043 3.824 0.127 5.721l-0.010-0.27c13.107 2.97 56.832-13.158 85.146-15.36 205.21-15.923 73.984-40.96 212.275-95.693l-31.949-93.901c9.83 5.632 5.12 0.87 13.568 9.626l33.792 60.262c32.819 73.165-32.512 68.813-75.878 109.005-58.675 53.709-155.443 40.448-200.346 46.797-3.565 0.49-6.39 3.159-7.107 6.601l-0.009 0.055c-0.109 0.507-0.171 1.090-0.171 1.687 0 3.057 1.634 5.733 4.076 7.201l0.038 0.021c37.932 12.788 81.617 20.168 127.026 20.168 10.667 0 21.239-0.407 31.701-1.207l-1.39 0.085 128.87-13.107c16.742-2.611 26.266-7.578 48.742-10.24 31.13-2.816 38.656 10.24 71.987-9.626l65.741-37.222z" />
<glyph unicode="&#xe913;" glyph-name="profile" d="M910.323-7.105v56.895c0 62.845-50.946 113.79-113.79 113.79v0h-568.952c-62.845 0-113.79-50.946-113.79-113.79v0-56.895c0-31.422-25.473-56.895-56.895-56.895v0c-31.422 0-56.895 25.473-56.895 56.895v0 56.895c0 125.689 101.891 227.581 227.581 227.581v0h568.952c125.689 0 227.581-101.891 227.581-227.581v0-56.895c0-31.422-25.473-56.895-56.895-56.895v0c-31.422 0-56.895 25.473-56.895 56.895v0zM227.581 675.638c0 157.112 127.364 284.476 284.476 284.476v0c157.033-0.194 284.282-127.442 284.476-284.457v-0.019c-0.291-156.995-127.482-284.185-284.448-284.476h-0.028c-157.033 0.194-284.282 127.442-284.476 284.457v0.019zM341.371 675.638c0-94.267 76.419-170.686 170.686-170.686v0c94.267 0 170.686 76.419 170.686 170.686v0c0 94.267-76.419 170.686-170.686 170.686v0c-94.267 0-170.686-76.419-170.686-170.686v0z" />
<glyph unicode="&#xe914;" glyph-name="plus" d="M578.782 514.782v445.218h-133.564v-445.218h-445.218v-133.564h445.218v-445.218h133.564v445.218h445.218v133.564z" />
<glyph unicode="&#xe915;" glyph-name="pinterest" horiz-adv-x="832" d="M429.952 960c-280.704 0-430.208-179.84-430.208-375.936-0.035-1.628-0.054-3.546-0.054-5.469 0-99.042 52.417-185.841 131.023-234.169l1.192-0.682c12.352-5.568 19.2-3.2 21.824 8.256 2.432 8.704 13.12 50.624 18.304 70.4 0.481 1.551 0.758 3.335 0.758 5.183 0 4.904-1.949 9.352-5.114 12.613l0.004-0.005c-30.062 38.726-48.258 87.972-48.448 141.461v0.043c3.214 149.856 125.454 270.107 275.78 270.107 6.416 0 12.781-0.219 19.088-0.65l-0.852 0.047c6.117 0.529 13.235 0.831 20.423 0.831 138.911 0 251.52-112.609 251.52-251.52 0-0.675-0.003-1.349-0.008-2.022l0.001 0.104c0-168-88.896-284.224-204.416-284.224-2.209-0.19-4.781-0.298-7.378-0.298-50.545 0-91.52 40.975-91.52 91.52 0 7.462 0.893 14.716 2.578 21.66l-0.128-0.626c21.729 58.306 40.481 127.8 52.966 199.445l1.050 7.275c0.257 2.399 0.404 5.182 0.404 7.999 0 43.865-35.559 79.424-79.424 79.424-1.11 0-2.214-0.023-3.313-0.068l0.157 0.005c-67.357-8.574-118.906-65.53-118.906-134.526 0-5.843 0.37-11.6 1.087-17.249l-0.070 0.671c-0.015-0.947-0.024-2.064-0.024-3.183 0-32.227 7.083-62.799 19.776-90.246l-0.553 1.333s-64.128-259.904-76.096-308.544c-4.56-29.816-7.164-64.215-7.164-99.221 0-45.144 4.331-89.277 12.6-132.005l-0.7 4.346c0.312-3.45 3.19-6.132 6.694-6.132 2.324 0 4.372 1.179 5.579 2.972l0.015 0.024c42.222 57.453 78.001 123.411 104.172 194.034l1.812 5.582c7.936 29.248 40.512 147.84 40.512 147.84 32.61-43.483 84.038-71.318 141.967-71.318 2.561 0 5.109 0.054 7.643 0.162l-0.362-0.012c196.16 0 337.6 172.416 337.6 386.368-0.448 204.8-175.936 358.4-401.792 358.4z" />
<glyph unicode="&#xe916;" glyph-name="minus" d="M0 550.4h1024v-204.8h-1024v204.8z" />
<glyph unicode="&#xe917;" glyph-name="instagram" d="M86.4 22.336c-97.024 97.024-85.952 226.688-85.952 425.856 0 194.56-12.8 327.296 85.952 425.728 54.575 51.289 128.256 82.801 209.297 82.801 1.929 0 3.855-0.018 5.776-0.053l-0.288 0.004c94.272 4.224 327.68 4.416 421.888 0 192.704-8.896 289.216-117.824 297.664-297.664 4.16-94.208 4.416-327.552 0-421.824-6.976-152.256-78.592-236.8-173.504-273.856-69.696-27.008-137.792-26.88-335.104-26.88-40 0-77.504-0.576-112.704-0.576-134.016 0.128-234.752 8.192-313.024 86.464zM872.192 87.552c63.488 64 59.456 149.76 59.456 360.64 0 136.64-0.512 152.832-3.008 206.784-10.688 236.8-189.12 212.8-416.448 212.8l-1.984 1.28c-136.768 0-152.832-0.704-207.168-2.56-236.8-12.16-212.288-181.952-212.288-417.6 0-174.272-12.8-289.152 58.88-360.704 62.4-62.592 147.904-59.392 361.216-59.392 207.232-0.064 296.832-5.76 361.344 58.752zM249.6 448c0 0.095 0 0.208 0 0.32 0 144.92 117.48 262.4 262.4 262.4 0.135 0 0.27 0 0.405 0h-0.021c145.096 0 262.72-117.624 262.72-262.72v0c-0.219-144.967-117.787-262.4-262.784-262.4-0.113 0-0.225 0-0.338 0h0.017c-144.92 0-262.4 117.48-262.4 262.4v0zM341.76 448c0-0.019 0-0.041 0-0.064 0-94.198 76.362-170.56 170.56-170.56v0c0.019 0 0.042 0 0.064 0 94.127 0 170.432 76.305 170.432 170.432 0 0.067 0 0.135 0 0.202v-0.010c0 0.019 0 0.042 0 0.064 0 94.127-76.305 170.432-170.432 170.432-0.022 0-0.045 0-0.067 0h0.003c-0.076 0-0.166 0-0.256 0-94.162 0-170.496-76.334-170.496-170.496 0 0 0 0 0 0v0zM724.096 721.088c0.036 33.87 27.501 61.312 61.376 61.312 0.023 0 0.045 0 0.068 0h-0.004c33.875 0 61.34-27.443 61.376-61.309v-0.003c0-0.019 0-0.042 0-0.064 0-33.862-27.45-61.312-61.312-61.312-0.023 0-0.045 0-0.068 0h0.004c-0.076 0-0.166-0.001-0.256-0.001-33.897 0-61.376 27.479-61.376 61.376 0 0.068 0 0.135 0 0.203v-0.010z" />
<glyph unicode="&#xe918;" glyph-name="info" d="M511.968-64.014c-282.295 0-511.968 229.658-511.968 511.999s229.673 512.015 511.968 512.015c282.357 0 512.030-229.673 512.030-512.015s-229.673-511.999-512.030-511.999zM511.968 831.992c-211.799 0-383.976-172.192-383.976-384.007 0-211.799 172.177-383.992 383.976-383.992 211.862 0 384.038 172.192 384.038 383.992 0 211.815-172.177 384.007-384.038 384.007zM575.964 191.986h-127.992v320.011h127.992v-320.011zM575.964 575.993h-127.992v128.008h127.992v-128.008z" />
<glyph unicode="&#xe919;" glyph-name="hamburger" d="M0-64v113.778h1024v-113.778zM0 391.111v113.778h796.444v-113.778zM0 846.222v113.778h1024v-113.778z" />
<glyph unicode="&#xe91a;" glyph-name="font-size" horiz-adv-x="1609" d="M877.714 960h-877.714v-146.286h365.714v-731.429h-146.286v-146.286h438.857v146.286h-146.286v731.429h365.714zM1389.714 960h-146.286v-73.143h-73.143v-73.143h-73.143v-73.143h-73.143v-146.286h146.286v73.143h73.143v73.143h146.286v-73.143h73.143v-73.143h146.286v146.286h-73.143v73.143h-73.143v73.143h-73.143zM1389.714-64v841.143h-146.286v-841.143z" />
<glyph unicode="&#xe91b;" glyph-name="facebook" horiz-adv-x="512" d="M320 608v128c0 35.346 28.654 64 64 64v0h64v160h-128c-106.039 0-192-85.961-192-192v0-160h-128v-160h128v-512h192v512h128l64 160z" />
<glyph unicode="&#xe91c;" glyph-name="crab-rotate" horiz-adv-x="1066" d="M851.811 269.927c-11.353 9.367-33.34 22.062-45.841 30.671-25.98 17.783-26.822 9.193-44.876 15.441-33.795 9.636-71.664 24.276-108.585 42.516l-1.823 0.93c45.823 28.64 69.894-4.73 93.848 14.962-11.118 2.968-62.506 12.73-82.493 16.759-2.043 0.031-4.181 0.589-6.144 1.723-1.083 0.625-2.041 1.384-2.865 2.243l0.067-0.065c1.983-0.199 4.455-0.603 6.914-1.139l0.514-0.134c15.282 0.966 29.365 3.102 43.163 6.404l-0.151-0.035c18.251 6.223 10.512 3.718 25.95 17.147 22.899 20.301 82.96 14.26 108.141 108.652-16.437-12.245-31.48-28.864-42.988-48.796-1.121-1.942-2.198-3.897-3.231-5.864l0.151 0.281c-51.484-4.493-75.468-33.954-94.303-49.627-7.44 3.034-67.473 21.731-55.556 32.075l61.172 4.497c17.63 13.585 38.447 18.878 58.214 35.536 30.271 25.585 31.871 37.623 19.482 56.346 0.874 1.137 1.766 2.092 2.726 2.952l-0.114-0.11c21.058 19.145-5.957 59.245-7.675 67.067s-12.462 14.227-14.425 15.824 3.885 9.718 3.885 9.718c4.504 68.096-52.978 107.083-52.978 107.083-0.716-3.603-0.341-7.174 0.974-10.386l0.020-0.047c2.239-5.062 18.2-26.964 22.842-38.010 3.082-14.709 4.415-30.050 3.858-45.439l-0.083-1.136c-3.892 0.183-7.962 1.322-11.72 3.492-1.889 1.091-3.592 2.38-5.098 3.826l0.138-0.123c-3.488 4.125-4.19 10.050-1.383 14.911 0.107 0.186 0.219 0.368 0.334 0.547l-0.016-0.025c-1.681 0.665-3.544 1.567-5.362 2.616-2.797 1.615-5.344 3.497-7.626 5.596l0.221-0.189c-5.397 5.218 0.145 11.979 0.145 11.979-3.581 0.229-7.326 1.316-10.793 3.318-0.239 0.138-0.475 0.279-0.707 0.424l0.034-0.021c-5.242 3.476-8.792 26.534-8.792 26.534-11.631-12.235-8.030-26.464-5.351-39.102 7.724-19.873 18.151-39.496 30.89-57.747l1.12-1.476c6.055-7.845 14.801-59.045 34.75-81.523v0c0.528-1.146 0.971-2.286 1.384-3.278-8.762-8.337-22.064-10.267-32.888-4.018-2.474 1.428-4.642 3.182-6.483 5.177l0.143-0.143-14.046-20.511-12.598 2.388c-15.461-18.317-13.83-9.414-32.349-19.717-47.615-25.691-46.613-12.931-64.353 2.198-20.933 16.957-7.492 1.513-12.897 20.002-3.172 10.226 4.207 15.724-18.079 14.643 16.032-3.674 1.498-15.538-4.831-26.499-9.622 1.545-18.287 2.082-26.893 1.838l0.71-0.002c-10.996 6.077-22.218 10.795-33.636 14.284l1.133-0.39c-0.023 11.888-7.447 29.441 8.601 25.772-18.334 10.585-14.784 2.243-22.553-5.161-14.532-13.242 5.602-6.018-21.271-11.454-15.926-3.376-13.462-7.596-27.302 1.104-18.75 12.275-3.706 40.692-4.387 43.13-2.274 11.781-4.802 6.223-8.774 16.244-1.146 3.662-1.992 7.344-2.551 11.074l-0.025 0.185-4.023 5.136c-23.321 27.412 4.648 18.949-18.906 32.548l-16.299 21.343c1 0.342 1.974 0.824 2.876 1.43l0.064 0.047c13.564 9.481 38.261 24.306 42.229 31.933 6.28 10.316 16.198 17.064 27.119 19.576l0.035 0.008c29.566 11.029 69.246 36.764 78.754 49.615 0.945 0.928 1.855 2.096 2.611 3.406 3.372 5.841 2.767 12.887-0.975 18.001l-0.071 0.089s-16.124-14.744-18.511-17.571-14.611-0.597-14.611-0.597c-0.463-1.328-1.126-2.778-1.938-4.185-1.865-3.231-4.326-5.903-7.163-7.959l0.138 0.109c-3.305-1.512-7.221-1.455-10.568 0.478-0.322 0.186-0.632 0.385-0.928 0.596l0.038-0.026s-3.999-7.681-6.971-11.924-22.78-6.131-22.78-6.131c-1.162 4.615-1.825 9.381-1.96 14.186l0.001 0.327c0.103 6.683 29.711 26.749 43.672 37.32 8.582 6.363 17.763 10.723 27.422 13.277l0.006 0.002 4.875 3.898s-3.767 5.002-19.584 2.97-71.328-45.493-86.302-57.465-69.452-52.013-69.452-52.013c-2.917-5.441-4.68-11.134-5.397-16.868l0.056 0.335c-2.73-10.705 2.052-19.424 6.378-30.389 11.342-14.233 6.941-6.11 4.946-26.59-1.177-7.68-0.919-15.014 0.595-22.065l-0.014 0.068c1.578-14.192 7.28-32.142 7.298-45.42 16.218-14.25 9.877-38.542 2.505-62.211-14.242 6.773-23.821 27.701-29.312 39.962-6.181 9.861-4.853 4.904-6.357 20.431-0.639 7.357-0.093 11.943-0.222 18.977-1.748 24.773-10.136 16.32-10.921 39.145-19.123 20.117 1.893 22.642-25.075 47.302 13.030 27.39 24.39 41.014 33.26 70.893-13.582-8.080-25.756-20.069-34.522-35.252s-13.062-31.72-13.296-48.087l0.028 0.565c0.83-14.533 4.535-28.326 10.882-40.919l0.218-0.403c11.079-31.538 4.674-12.471 2.289-43.223 6.268-10.604 11.070-20.785 14.935-31.293l-0.14 0.364c5.126-9.252 12.148-18.888 15.581-25.046 11.643-13.711 20.608-22.366 11.751-38.914l-23.257 14.138c-20.422 16.662-31.021 16.46-31.793 39.307-0.755 14.413 2.554 10.4-0.328 26.026-1.998 6.79-3.032 13.816-3.054 20.898l0.012 0.403c-20.443 11.803-12.263 12.662-19.768 27.463-6.013 12.563-10.933 11.198-21.037 24.035-11.223 15.643-19.246 35.6-32.003 53.434-2.855-33.975 14.537-19.572 29.247-86.031 6.703-10.163 8.129-13.77 16.84-26.483s9.335-11.682 5.613-29.078c5.045-10.367 9.019-20.024 12.405-29.874l-0.139 0.392c19.204-18.772 4.526-20.012 25.402-37.067 11.134-8.516 37.296-20.083 42.291-27.201-6.615-1.763-65.335 17.423-88.337 9.099l39.995-15.407c12.722-3.776 26.44-9.649 39.63-17.265 4.793-2.767 9.421-5.71 13.882-8.815l-0.588 0.395c3.885-2.939 15.796-12.57 19.662-15.542 15.384-14.464 7.637-3.699 8.171-17.288l-87.231 23.119c-19.037-3.065-39.269-0.911-58.167 7.109l-0.473 0.213c-24.334-3.349-50.2 17.094-69.018 1.426-18.233-14.629-28.317-56.305-26.68-74.011 39.8 76.194 13.881 50.663 85.028 48.052 24.652 8.821 20.316 8.569 49.954-3.004 20.423-3.425 36.231-1.359 60.061-6.041 20.617-4.219 42.064-8.207 61.841-12.651-0.705-3.162-1.998-6.519-3.84-9.71-2.974-5.152-7.040-9.28-11.737-12.262l0.179 0.124c-23 4.913-42.548 23.115-88.91-0.356-25.147-13.421-10.366 7.435-54.329-10.55-26.713-11.11-43.506-16.088-58.053-64.263-1.155-28.621 15.446-50.82 39.827-18.108 32.499 35.723 13.552 27.089 51.504 40.816 45.631 16.253 44.875 30.941 55.19 35.498 10.959-2.512 21.002-3.674 31.001-3.803l-0.826 0.040c32.704 1.272 45.238-2.007 108.449-22.581l1.734-0.914 7.245-5.633c0.181-0.142 0.4-0.29 0.632-0.424 1.575-0.909 3.406-0.972 4.968-0.33l0.015 0.007 4.909 2.023c0.822 0.329 1.695 0.475 2.57 0.426l0.037-0.004c13.83-1.377 29.125-4.587 44.131-9.48l1.387-0.504c39.259-9.4 27.291-1.098 49.945-21.151l32.492-18.759c-0.944-11.329-1.836-26.183-1.892-35.923-2.493-18.859 6.013-25.873 14.165-44.425-15.39-35.119-20.26-35.091-12.377-66.189 50.989-21.754 73.899 66.294 55.72 97.74-8.339 14.587-15.595 11.788-21.404 27.016-6.083 16.083 2.445 9.057-8.282 29.227-25.155 45.957-22.174 23.27-57.809 38.972 0.184 8.172 1.79 16.863 4.878 25.263l0.181 0.451c8.622-0.788 32.174-19.286 49.098-26.259 122.49-50.421 37.191-39.625 111.065-100.37l-38.436-51.028c7.136 1.462 3.216-0.407 10.226 3.172l32.57 29.97c34.541 38.053-6.318 48.348-24.927 81.435-25.32 44.341-87.172 55.491-113.385 68.276-0.114 0.054-0.244 0.122-0.373 0.196-2.57 1.484-3.451 4.771-1.967 7.341 0.779 1.35 2.055 2.233 3.464 2.554l0.005 0.001c25.138 4.741 72.913-10.576 100.062-19.654l76.315-33.563c9.729-4.921 14.596-9.877 27.762-16.028 18.495-7.895 25.655-1.546 42.158-20.149l32.961-35.776z" />
<glyph unicode="&#xe91d;" glyph-name="call" d="M1023.927 193.317v-154.185c0-0.083 0-0.182 0-0.28 0-56.837-46.075-102.912-102.912-102.912-3.296 0-6.557 0.155-9.774 0.458l0.411-0.031c-167.106 18.585-318.055 74.912-448.302 160.232l3.886-2.389c-125.098 80.199-228.38 183.341-306.346 304.336l-2.39 3.961c-83.321 126.61-139.771 277.988-157.657 440.969l-0.405 4.544c-0.259 2.74-0.407 5.924-0.407 9.143 0 56.785 46.025 102.821 102.806 102.839h154.479c0.329 0.004 0.718 0.006 1.107 0.006 51.704 0 94.502-38.129 101.811-87.803l0.068-0.559c7.272-53.959 19.896-102.68 37.577-148.899l-1.517 4.515c4.184-10.745 6.608-23.184 6.608-36.189 0-28.178-11.382-53.698-29.799-72.214l0.004 0.004-65.39-65.243c74.653-129.374 179.334-233.867 304.893-306.179l3.989-2.118 65.39 65.243c18.609 18.35 44.18 29.683 72.397 29.683 13.012 0 25.462-2.41 36.926-6.808l-0.706 0.238c41.786-16.132 90.61-28.732 141.254-35.606l3.423-0.38c50.343-7.234 88.605-50.073 88.605-101.849 0-0.862-0.011-1.722-0.032-2.58l0.002 0.127z" />
<glyph unicode="&#xe91e;" glyph-name="arrow-right-longest" horiz-adv-x="3686" d="M3072-64v204.8h102.4v102.4h102.4v102.4h-3276.8v204.8h3276.8v102.4h-102.4v102.4h-102.4v204.8h204.8v-102.4h102.4v-102.4h102.4v-102.4h102.4v-102.4h102.4v-204.8h-102.4v-102.4h-102.4v-102.4h-102.4v-102.4h-102.4v-102.4z" />
<glyph unicode="&#xe91f;" glyph-name="arrow-left-longest" horiz-adv-x="3686" d="M614.298 960.102v-204.8h-102.4v-102.4h-102.4v-102.4h3276.8v-204.8h-3276.8v-102.4h102.4v-102.4h102.4v-204.8h-204.8v102.4h-102.4v102.4h-102.4v102.4h-102.4v102.4h-102.4v204.8h102.4v102.4h102.4v102.4h102.4v102.4h102.4v102.4z" />
<glyph unicode="&#xe920;" glyph-name="arrow-left" horiz-adv-x="2304" d="M639.872 960.128v-256h-128v-128h1792v-256h-1792v-128h128v-256h-256v128h-128v128h-128v128h-128v256h128v128h128v128h128v128z" />
<glyph unicode="&#xe921;" glyph-name="arrow-left-longer" horiz-adv-x="2457" d="M614.298-64v204.8h-102.4v102.4h-102.4v102.4h2048v204.8h-2048v102.4h102.4v102.4h102.4v204.8h-204.8v-102.4h-102.4v-102.4h-102.4v-102.4h-102.4v-102.4h-102.4v-204.8h102.4v-102.4h102.4v-102.4h102.4v-102.4h102.4v-102.4z" />
<glyph unicode="&#xe922;" glyph-name="arrow-right" horiz-adv-x="2304" d="M1920-64v128h128v128h128v128h128v256h-128v128h-128v128h-128v128h-256v-256h128v-128h-1792v-256h1792v-128h-128v-256z" />
<glyph unicode="&#xe923;" glyph-name="arrow-right-longer" horiz-adv-x="2457" d="M1843.098-64v204.8h102.4v102.4h102.4v102.4h-2048v204.8h2048v102.4h-102.4v102.4h-102.4v204.8h204.8v-102.4h102.4v-102.4h102.4v-102.4h102.4v-102.4h102.4v-204.8h-102.4v-102.4h-102.4v-102.4h-102.4v-102.4h-102.4v-102.4z" />
<glyph unicode="&#xe924;" glyph-name="check" horiz-adv-x="1312" d="M1106.56 960l-614.4-614.4-286.72 286.72-204.8-204.8 491.52-491.52 819.2 819.2z" />
<glyph unicode="&#xe925;" glyph-name="expander" d="M512.384-63.744h-511.872v511.872h511.872v511.872h511.872v-1023.744z" />
<glyph unicode="&#xe926;" glyph-name="recycle" d="M384 704h-128v-512h128zM448 704h128v-512h-128zM768 704h-128v-512h128zM0 896v0c0-35.346 28.654-64 64-64v-768c0-70.692 57.308-128 128-128h640c70.692 0 128 57.308 128 128v768c35.346 0 64 28.654 64 64s-28.654 64-64 64h-896c-35.346 0-64-28.654-64-64zM192 832h640v-768h-640z" />
<glyph unicode="" glyph-name="recycle" d="M384 704h-128v-512h128zM448 704h128v-512h-128zM768 704h-128v-512h128zM0 896v0c0-35.346 28.654-64 64-64v-768c0-70.692 57.308-128 128-128h640c70.692 0 128 57.308 128 128v768c35.346 0 64 28.654 64 64s-28.654 64-64 64h-896c-35.346 0-64-28.654-64-64zM192 832h640v-768h-640z" />
<glyph unicode="youtube" glyph-name="youtube" horiz-adv-x="1490" d="M744.82-64.093c-181.248 0-414.068 2.793-508.369 8.099-86.388 5.958-131.631 16.849-173.521 91.043s-63.209 204.8-63.209 412.207v0.931c0 210.385 19.456 337.734 63.209 412.951 40.401 71.401 84.247 85.085 173.708 90.205 95.046 6.33 333.172 8.564 508.183 8.564s412.486-2.234 507.718-8.564c89.46-5.12 133.399-18.618 173.335-90.205 43.846-74.473 63.395-201.728 63.395-413.137v-0.652c0-211.503-19.456-338.758-63.209-412.486-40.029-70.935-83.782-84.899-173.521-90.857-94.022-5.213-326.563-8.099-507.718-8.099zM558.639 727.18v0-558.545l465.455 279.273-465.455 279.273z" />
<glyph unicode="warning" glyph-name="warning" d="M0 448.064c0.291 282.653 229.347 511.709 511.972 512h0.028c282.653-0.291 511.709-229.347 512-511.972v-0.028c-0.364-282.623-229.377-511.636-511.965-512h-0.035c-282.623 0.364-511.636 229.377-512 511.965v0.035zM128 448.064c0.255-211.975 172.025-383.745 383.975-384h0.025c211.975 0.255 383.745 172.025 384 383.975v0.025c-0.291 211.96-172.040 383.709-383.972 384h-0.028c-211.96-0.291-383.709-172.040-384-383.972v-0.028zM448 192.064v128h128v-128zM448 384.064v320h128v-320z" />
<glyph unicode="twitter" glyph-name="twitter" horiz-adv-x="1260" d="M1260.308 838.774c-43.313-19.437-93.564-33.776-146.191-40.522l-2.683-0.281c53.56 32.169 93.794 81.854 113.149 140.992l0.515 1.817c-47.162-28.463-102.054-50.164-160.529-61.984l-3.311-0.559c-47.258 50.322-114.216 81.668-188.495 81.668-142.684 0-258.354-115.664-258.363-258.346v-0.001c-0.009-0.814-0.014-1.775-0.014-2.738 0-19.903 2.186-39.295 6.331-57.95l-0.33 1.769c-215.366 10.812-404.831 113.227-531.588 268.771l-1.049 1.329c-22.229-37.373-35.368-82.402-35.368-130.499 0-89.169 45.159-167.791 113.854-214.243l0.913-0.582c-42.984 1.080-83.045 12.627-118.029 32.171l1.293-0.663v-2.836c0.306-124.563 88.179-228.514 205.301-253.568l1.705-0.306c-19.717-5.408-42.357-8.515-65.722-8.515-0.71 0-1.42 0.003-2.129 0.009l0.109-0.001c-1.208-0.023-2.633-0.036-4.061-0.036-15.874 0-31.37 1.619-46.331 4.701l1.476-0.254c34.383-103.332 128.922-177.065 241.089-179.981l0.339-0.007c-87.233-68.754-198.724-110.277-319.912-110.277-0.155 0-0.311 0-0.466 0h0.024c-21.847 0.047-43.301 1.534-64.327 4.371l2.493-0.275c111.312-72.704 247.603-115.952 393.995-115.952 0.834 0 1.667 0.001 2.5 0.004h-0.128c1.502-0.011 3.279-0.018 5.058-0.018 403.36 0 730.348 326.988 730.348 730.348 0 1.723-0.006 3.445-0.018 5.166l0.001-0.264c0 11.422-0.394 22.449-0.945 33.398 51.156 36.899 94.158 81.38 128.324 132.289l1.172 1.855z" />
<glyph unicode="thumbs-up" glyph-name="thumbs-up" horiz-adv-x="1117" d="M279.273-64v651.636l372.364 372.364 78.196-53.9c13.59-13.968 21.97-33.064 21.97-54.118 0-0.087 0-0.174 0-0.261v0.013c-0.025-4.392-0.431-8.672-1.185-12.831l0.068 0.45c0-1.21 0-2.513-0.559-3.724l-98.49-247.994h465.455v-186.182l-157.603-402.991c-14.996-36.736-50.339-62.205-91.662-62.464h-0.033zM0-64v651.636h186.182v-651.636z" />
<glyph unicode="thumbs-down" glyph-name="thumbs-down" horiz-adv-x="1117" d="M387.258-9.914c-13.533 13.943-21.877 32.989-21.877 53.984 0 0.101 0 0.202 0.001 0.304v-0.016c0.023 4.424 0.429 8.737 1.185 12.927l-0.068-0.453c0 1.117 0 2.327 0.652 3.631l98.304 247.901h-465.455v186.182l157.603 403.084c14.935 36.784 50.314 62.286 91.672 62.464h588.543v-651.636l-372.364-372.364zM930.909 308.364v651.636h186.182v-651.636z" />
<glyph unicode="success" glyph-name="success" d="M0 447.968c0.437 282.577 229.392 511.532 511.927 511.968h0.041c282.577-0.437 511.532-229.392 511.968-511.927v-0.041c-0.327-282.62-229.347-511.64-511.936-511.968h-0.032c-282.62 0.327-511.64 229.347-511.968 511.936v0.032zM127.992 447.968c0.182-211.991 171.985-383.794 383.958-383.976h0.018c211.976 0.218 383.758 172 383.976 383.955v0.021c-0.291 211.947-172.029 383.685-383.948 383.976h-0.028c-211.947-0.291-383.685-172.029-383.976-383.948v-0.028zM383.976 255.98v63.996h-63.996v63.996h-63.996v127.992h127.992v-63.996h127.992v63.996h63.996v63.996h63.996v63.996h127.992v-127.992h-63.996v-63.996h-63.996v-63.996h-63.996v-63.996h-63.996v-63.996z" />
<glyph unicode="share" glyph-name="share" d="M0 960h341.333v-170.667h-170.667v-682.667h682.667v170.667h170.667v-341.333h-1024v1024zM682.667 960h-170.667v-170.667h170.667v-85.333h-85.333v-85.333h-85.333v-85.333h-85.333v-170.667h170.667v85.333h85.333v85.333h85.333v85.333h85.333v-170.667h170.667v512h-341.333z" />
<glyph unicode="search" glyph-name="search" d="M1007.278 33.486l-193.379 192.81c59.919 75.652 96.122 172.469 96.122 277.741 0 0.335 0 0.67-0.001 1.005v-0.052c0 251.295-203.715 455.010-455.010 455.010s-455.010-203.715-455.010-455.010c0-251.295 203.715-455.010 455.010-455.010v0c0.283-0.001 0.618-0.001 0.953-0.001 105.272 0 202.089 36.203 278.678 96.838l-0.937-0.716 192.81-193.379c10.335-10.335 24.612-16.727 40.382-16.727 31.54 0 57.109 25.569 57.109 57.109 0 15.77-6.392 30.047-16.727 40.382v0zM113.752 504.99c0 188.471 152.786 341.257 341.257 341.257s341.257-152.786 341.257-341.257c0-188.471-152.786-341.257-341.257-341.257v0c-188.471 0-341.257 152.786-341.257 341.257v0z" />
<glyph unicode="quote" glyph-name="quote" horiz-adv-x="1052" d="M294.936 44.077c-66.809-66.524-197.98-103.953-294.936-108.077v170.648c59.244 9.456 111.486 34.251 154.054 70.153l-0.471-0.387c110.523 109.869 109.499 341.864 109.385 382.080v3.214h-204.493v398.178h408.986v-369.395c1.052-36.888 4.465-369.737-172.525-546.414zM879.575 44.077c-66.809-66.666-198.008-104.095-294.822-108.077v170.648c59.244 9.456 111.486 34.251 154.054 70.153l-0.471-0.387c110.523 109.869 109.499 341.864 109.385 382.080v3.214h-204.635v398.178h409.014v-369.395c1.024-36.888 4.465-369.737-172.525-546.414z" />
<glyph unicode="profile" glyph-name="profile" d="M910.323-7.105v56.895c0 62.845-50.946 113.79-113.79 113.79v0h-568.952c-62.845 0-113.79-50.946-113.79-113.79v0-56.895c0-31.422-25.473-56.895-56.895-56.895v0c-31.422 0-56.895 25.473-56.895 56.895v0 56.895c0 125.689 101.891 227.581 227.581 227.581v0h568.952c125.689 0 227.581-101.891 227.581-227.581v0-56.895c0-31.422-25.473-56.895-56.895-56.895v0c-31.422 0-56.895 25.473-56.895 56.895v0zM227.581 675.638c0 157.112 127.364 284.476 284.476 284.476v0c157.033-0.194 284.282-127.442 284.476-284.457v-0.019c-0.291-156.995-127.482-284.185-284.448-284.476h-0.028c-157.033 0.194-284.282 127.442-284.476 284.457v0.019zM341.371 675.638c0-94.267 76.419-170.686 170.686-170.686v0c94.267 0 170.686 76.419 170.686 170.686v0c0 94.267-76.419 170.686-170.686 170.686v0c-94.267 0-170.686-76.419-170.686-170.686v0z" />
<glyph unicode="plus" glyph-name="plus" d="M578.782 514.782v445.218h-133.564v-445.218h-445.218v-133.564h445.218v-445.218h133.564v445.218h445.218v133.564z" />
<glyph unicode="pinterest" glyph-name="pinterest" horiz-adv-x="832" d="M429.952 960c-280.704 0-430.208-179.84-430.208-375.936-0.035-1.628-0.054-3.546-0.054-5.469 0-99.042 52.417-185.841 131.023-234.169l1.192-0.682c12.352-5.568 19.2-3.2 21.824 8.256 2.432 8.704 13.12 50.624 18.304 70.4 0.481 1.551 0.758 3.335 0.758 5.183 0 4.904-1.949 9.352-5.114 12.613l0.004-0.005c-30.062 38.726-48.258 87.972-48.448 141.461v0.043c3.214 149.856 125.454 270.107 275.78 270.107 6.416 0 12.781-0.219 19.088-0.65l-0.852 0.047c6.117 0.529 13.235 0.831 20.423 0.831 138.911 0 251.52-112.609 251.52-251.52 0-0.675-0.003-1.349-0.008-2.022l0.001 0.104c0-168-88.896-284.224-204.416-284.224-2.209-0.19-4.781-0.298-7.378-0.298-50.545 0-91.52 40.975-91.52 91.52 0 7.462 0.893 14.716 2.578 21.66l-0.128-0.626c21.729 58.306 40.481 127.8 52.966 199.445l1.050 7.275c0.257 2.399 0.404 5.182 0.404 7.999 0 43.865-35.559 79.424-79.424 79.424-1.11 0-2.214-0.023-3.313-0.068l0.157 0.005c-67.357-8.574-118.906-65.53-118.906-134.526 0-5.843 0.37-11.6 1.087-17.249l-0.070 0.671c-0.015-0.947-0.024-2.064-0.024-3.183 0-32.227 7.083-62.799 19.776-90.246l-0.553 1.333s-64.128-259.904-76.096-308.544c-4.56-29.816-7.164-64.215-7.164-99.221 0-45.144 4.331-89.277 12.6-132.005l-0.7 4.346c0.312-3.45 3.19-6.132 6.694-6.132 2.324 0 4.372 1.179 5.579 2.972l0.015 0.024c42.222 57.453 78.001 123.411 104.172 194.034l1.812 5.582c7.936 29.248 40.512 147.84 40.512 147.84 32.61-43.483 84.038-71.318 141.967-71.318 2.561 0 5.109 0.054 7.643 0.162l-0.362-0.012c196.16 0 337.6 172.416 337.6 386.368-0.448 204.8-175.936 358.4-401.792 358.4z" />
<glyph unicode="pencil" glyph-name="pencil" d="M960.336 617.046l-553.718-553.846c-30.588-28.149-67.691-49.721-108.758-62.183l-1.999-0.521-244.675-61.425c-4.291-1.911-9.299-3.023-14.566-3.023-20.213 0-36.599 16.386-36.599 36.599 0 5.233 1.098 10.209 3.077 14.711l-0.092-0.235 19.195 75.693 42.229 168.918c12.9 43.153 34.486 80.335 62.882 111.143l-0.178-0.195 553.782 553.846c36.208 38.81 87.652 63.003 144.746 63.003 109.228 0 197.775-88.547 197.775-197.775 0-57.142-24.233-108.624-62.984-144.729l-0.118-0.109zM216.842 252.977c-12.296-14.708-22.222-31.912-28.881-50.664l-0.36-1.163-25.594-103.206 103.142 25.594c19.859 7.071 37.014 16.991 51.969 29.46l-0.27-0.219 436.435 436.499-2.431 2.559-97.768 97.704-436.179-436.627zM870.182 806.758c-12.796 12.747-30.448 20.627-49.94 20.627s-37.143-7.881-49.942-20.63l0.002 0.002-27.513-27.641 2.239-2.239 97.96-97.64 27.513 27.513c12.777 12.83 20.676 30.526 20.676 50.067s-7.899 37.237-20.678 50.070l0.002-0.002z" />
<glyph unicode="minus" glyph-name="minus" d="M0 550.4h1024v-204.8h-1024v204.8z" />
<glyph unicode="instagram" glyph-name="instagram" d="M86.4 22.336c-97.024 97.024-85.952 226.688-85.952 425.856 0 194.56-12.8 327.296 85.952 425.728 54.575 51.289 128.256 82.801 209.297 82.801 1.929 0 3.855-0.018 5.776-0.053l-0.288 0.004c94.272 4.224 327.68 4.416 421.888 0 192.704-8.896 289.216-117.824 297.664-297.664 4.16-94.208 4.416-327.552 0-421.824-6.976-152.256-78.592-236.8-173.504-273.856-69.696-27.008-137.792-26.88-335.104-26.88-40 0-77.504-0.576-112.704-0.576-134.016 0.128-234.752 8.192-313.024 86.464zM872.192 87.552c63.488 64 59.456 149.76 59.456 360.64 0 136.64-0.512 152.832-3.008 206.784-10.688 236.8-189.12 212.8-416.448 212.8l-1.984 1.28c-136.768 0-152.832-0.704-207.168-2.56-236.8-12.16-212.288-181.952-212.288-417.6 0-174.272-12.8-289.152 58.88-360.704 62.4-62.592 147.904-59.392 361.216-59.392 207.232-0.064 296.832-5.76 361.344 58.752zM249.6 448c0 0.095 0 0.208 0 0.32 0 144.92 117.48 262.4 262.4 262.4 0.135 0 0.27 0 0.405 0h-0.021c145.096 0 262.72-117.624 262.72-262.72v0c-0.219-144.967-117.787-262.4-262.784-262.4-0.113 0-0.225 0-0.338 0h0.017c-144.92 0-262.4 117.48-262.4 262.4v0zM341.76 448c0-0.019 0-0.041 0-0.064 0-94.198 76.362-170.56 170.56-170.56v0c0.019 0 0.042 0 0.064 0 94.127 0 170.432 76.305 170.432 170.432 0 0.067 0 0.135 0 0.202v-0.010c0 0.019 0 0.042 0 0.064 0 94.127-76.305 170.432-170.432 170.432-0.022 0-0.045 0-0.067 0h0.003c-0.076 0-0.166 0-0.256 0-94.162 0-170.496-76.334-170.496-170.496 0 0 0 0 0 0v0zM724.096 721.088c0.036 33.87 27.501 61.312 61.376 61.312 0.023 0 0.045 0 0.068 0h-0.004c33.875 0 61.34-27.443 61.376-61.309v-0.003c0-0.019 0-0.042 0-0.064 0-33.862-27.45-61.312-61.312-61.312-0.023 0-0.045 0-0.068 0h0.004c-0.076 0-0.166-0.001-0.256-0.001-33.897 0-61.376 27.479-61.376 61.376 0 0.068 0 0.135 0 0.203v-0.010z" />
<glyph unicode="info" glyph-name="info" d="M511.968-64.014c-282.295 0-511.968 229.658-511.968 511.999s229.673 512.015 511.968 512.015c282.357 0 512.030-229.673 512.030-512.015s-229.673-511.999-512.030-511.999zM511.968 831.992c-211.799 0-383.976-172.192-383.976-384.007 0-211.799 172.177-383.992 383.976-383.992 211.862 0 384.038 172.192 384.038 383.992 0 211.815-172.177 384.007-384.038 384.007zM575.964 191.986h-127.992v320.011h127.992v-320.011zM575.964 575.993h-127.992v128.008h127.992v-128.008z" />
<glyph unicode="hamburger" glyph-name="hamburger" d="M0-64v113.778h1024v-113.778zM0 391.111v113.778h796.444v-113.778zM0 846.222v113.778h1024v-113.778z" />
<glyph unicode="font-size" glyph-name="font-size" horiz-adv-x="1609" d="M877.714 960h-877.714v-146.286h365.714v-731.429h-146.286v-146.286h438.857v146.286h-146.286v731.429h365.714zM1389.714 960h-146.286v-73.143h-73.143v-73.143h-73.143v-73.143h-73.143v-146.286h146.286v73.143h73.143v73.143h146.286v-73.143h73.143v-73.143h146.286v146.286h-73.143v73.143h-73.143v73.143h-73.143zM1389.714-64v841.143h-146.286v-841.143z" />
<glyph unicode="facebook" glyph-name="facebook" horiz-adv-x="512" d="M320 608v128c0 35.346 28.654 64 64 64v0h64v160h-128c-106.039 0-192-85.961-192-192v0-160h-128v-160h128v-512h192v512h128l64 160z" />
<glyph unicode="expander" glyph-name="expander" d="M512.384-63.744h-511.872v511.872h511.872v511.872h511.872v-1023.744z" />
<glyph unicode="error" glyph-name="error" d="M512-64.047c-282.25 0-512 229.734-512 512s229.75 512.016 512 512.016c282.25 0 512-229.75 512-512.016s-229.75-512-512-512zM186.375 651.125c-36.938-58.969-58.313-128.641-58.313-203.172 0-211.641 172.313-383.938 383.938-383.938 74.563 0 144.188 21.375 203.188 58.297l-528.813 528.813zM512 831.906c-90.938 0-174.625-31.828-240.5-84.906l539.563-539.531c53.063 65.859 84.875 149.547 84.875 240.484 0 211.641-172.25 383.953-383.938 383.953z" />
<glyph unicode="crab-rotate" glyph-name="crab-rotate" horiz-adv-x="1066" d="M851.811 269.927c-11.353 9.367-33.34 22.062-45.841 30.671-25.98 17.783-26.822 9.193-44.876 15.441-33.795 9.636-71.664 24.276-108.585 42.516l-1.823 0.93c45.823 28.64 69.894-4.73 93.848 14.962-11.118 2.968-62.506 12.73-82.493 16.759-2.043 0.031-4.181 0.589-6.144 1.723-1.083 0.625-2.041 1.384-2.865 2.243l0.067-0.065c1.983-0.199 4.455-0.603 6.914-1.139l0.514-0.134c15.282 0.966 29.365 3.102 43.163 6.404l-0.151-0.035c18.251 6.223 10.512 3.718 25.95 17.147 22.899 20.301 82.96 14.26 108.141 108.652-16.437-12.245-31.48-28.864-42.988-48.796-1.121-1.942-2.198-3.897-3.231-5.864l0.151 0.281c-51.484-4.493-75.468-33.954-94.303-49.627-7.44 3.034-67.473 21.731-55.556 32.075l61.172 4.497c17.63 13.585 38.447 18.878 58.214 35.536 30.271 25.585 31.871 37.623 19.482 56.346 0.874 1.137 1.766 2.092 2.726 2.952l-0.114-0.11c21.058 19.145-5.957 59.245-7.675 67.067s-12.462 14.227-14.425 15.824 3.885 9.718 3.885 9.718c4.504 68.096-52.978 107.083-52.978 107.083-0.716-3.603-0.341-7.174 0.974-10.386l0.020-0.047c2.239-5.062 18.2-26.964 22.842-38.010 3.082-14.709 4.415-30.050 3.858-45.439l-0.083-1.136c-3.892 0.183-7.962 1.322-11.72 3.492-1.889 1.091-3.592 2.38-5.098 3.826l0.138-0.123c-3.488 4.125-4.19 10.050-1.383 14.911 0.107 0.186 0.219 0.368 0.334 0.547l-0.016-0.025c-1.681 0.665-3.544 1.567-5.362 2.616-2.797 1.615-5.344 3.497-7.626 5.596l0.221-0.189c-5.397 5.218 0.145 11.979 0.145 11.979-3.581 0.229-7.326 1.316-10.793 3.318-0.239 0.138-0.475 0.279-0.707 0.424l0.034-0.021c-5.242 3.476-8.792 26.534-8.792 26.534-11.631-12.235-8.030-26.464-5.351-39.102 7.724-19.873 18.151-39.496 30.89-57.747l1.12-1.476c6.055-7.845 14.801-59.045 34.75-81.523v0c0.528-1.146 0.971-2.286 1.384-3.278-8.762-8.337-22.064-10.267-32.888-4.018-2.474 1.428-4.642 3.182-6.483 5.177l0.143-0.143-14.046-20.511-12.598 2.388c-15.461-18.317-13.83-9.414-32.349-19.717-47.615-25.691-46.613-12.931-64.353 2.198-20.933 16.957-7.492 1.513-12.897 20.002-3.172 10.226 4.207 15.724-18.079 14.643 16.032-3.674 1.498-15.538-4.831-26.499-9.622 1.545-18.287 2.082-26.893 1.838l0.71-0.002c-10.996 6.077-22.218 10.795-33.636 14.284l1.133-0.39c-0.023 11.888-7.447 29.441 8.601 25.772-18.334 10.585-14.784 2.243-22.553-5.161-14.532-13.242 5.602-6.018-21.271-11.454-15.926-3.376-13.462-7.596-27.302 1.104-18.75 12.275-3.706 40.692-4.387 43.13-2.274 11.781-4.802 6.223-8.774 16.244-1.146 3.662-1.992 7.344-2.551 11.074l-0.025 0.185-4.023 5.136c-23.321 27.412 4.648 18.949-18.906 32.548l-16.299 21.343c1 0.342 1.974 0.824 2.876 1.43l0.064 0.047c13.564 9.481 38.261 24.306 42.229 31.933 6.28 10.316 16.198 17.064 27.119 19.576l0.035 0.008c29.566 11.029 69.246 36.764 78.754 49.615 0.945 0.928 1.855 2.096 2.611 3.406 3.372 5.841 2.767 12.887-0.975 18.001l-0.071 0.089s-16.124-14.744-18.511-17.571-14.611-0.597-14.611-0.597c-0.463-1.328-1.126-2.778-1.938-4.185-1.865-3.231-4.326-5.903-7.163-7.959l0.138 0.109c-3.305-1.512-7.221-1.455-10.568 0.478-0.322 0.186-0.632 0.385-0.928 0.596l0.038-0.026s-3.999-7.681-6.971-11.924-22.78-6.131-22.78-6.131c-1.162 4.615-1.825 9.381-1.96 14.186l0.001 0.327c0.103 6.683 29.711 26.749 43.672 37.32 8.582 6.363 17.763 10.723 27.422 13.277l0.006 0.002 4.875 3.898s-3.767 5.002-19.584 2.97-71.328-45.493-86.302-57.465-69.452-52.013-69.452-52.013c-2.917-5.441-4.68-11.134-5.397-16.868l0.056 0.335c-2.73-10.705 2.052-19.424 6.378-30.389 11.342-14.233 6.941-6.11 4.946-26.59-1.177-7.68-0.919-15.014 0.595-22.065l-0.014 0.068c1.578-14.192 7.28-32.142 7.298-45.42 16.218-14.25 9.877-38.542 2.505-62.211-14.242 6.773-23.821 27.701-29.312 39.962-6.181 9.861-4.853 4.904-6.357 20.431-0.639 7.357-0.093 11.943-0.222 18.977-1.748 24.773-10.136 16.32-10.921 39.145-19.123 20.117 1.893 22.642-25.075 47.302 13.030 27.39 24.39 41.014 33.26 70.893-13.582-8.080-25.756-20.069-34.522-35.252s-13.062-31.72-13.296-48.087l0.028 0.565c0.83-14.533 4.535-28.326 10.882-40.919l0.218-0.403c11.079-31.538 4.674-12.471 2.289-43.223 6.268-10.604 11.070-20.785 14.935-31.293l-0.14 0.364c5.126-9.252 12.148-18.888 15.581-25.046 11.643-13.711 20.608-22.366 11.751-38.914l-23.257 14.138c-20.422 16.662-31.021 16.46-31.793 39.307-0.755 14.413 2.554 10.4-0.328 26.026-1.998 6.79-3.032 13.816-3.054 20.898l0.012 0.403c-20.443 11.803-12.263 12.662-19.768 27.463-6.013 12.563-10.933 11.198-21.037 24.035-11.223 15.643-19.246 35.6-32.003 53.434-2.855-33.975 14.537-19.572 29.247-86.031 6.703-10.163 8.129-13.77 16.84-26.483s9.335-11.682 5.613-29.078c5.045-10.367 9.019-20.024 12.405-29.874l-0.139 0.392c19.204-18.772 4.526-20.012 25.402-37.067 11.134-8.516 37.296-20.083 42.291-27.201-6.615-1.763-65.335 17.423-88.337 9.099l39.995-15.407c12.722-3.776 26.44-9.649 39.63-17.265 4.793-2.767 9.421-5.71 13.882-8.815l-0.588 0.395c3.885-2.939 15.796-12.57 19.662-15.542 15.384-14.464 7.637-3.699 8.171-17.288l-87.231 23.119c-19.037-3.065-39.269-0.911-58.167 7.109l-0.473 0.213c-24.334-3.349-50.2 17.094-69.018 1.426-18.233-14.629-28.317-56.305-26.68-74.011 39.8 76.194 13.881 50.663 85.028 48.052 24.652 8.821 20.316 8.569 49.954-3.004 20.423-3.425 36.231-1.359 60.061-6.041 20.617-4.219 42.064-8.207 61.841-12.651-0.705-3.162-1.998-6.519-3.84-9.71-2.974-5.152-7.040-9.28-11.737-12.262l0.179 0.124c-23 4.913-42.548 23.115-88.91-0.356-25.147-13.421-10.366 7.435-54.329-10.55-26.713-11.11-43.506-16.088-58.053-64.263-1.155-28.621 15.446-50.82 39.827-18.108 32.499 35.723 13.552 27.089 51.504 40.816 45.631 16.253 44.875 30.941 55.19 35.498 10.959-2.512 21.002-3.674 31.001-3.803l-0.826 0.040c32.704 1.272 45.238-2.007 108.449-22.581l1.734-0.914 7.245-5.633c0.181-0.142 0.4-0.29 0.632-0.424 1.575-0.909 3.406-0.972 4.968-0.33l0.015 0.007 4.909 2.023c0.822 0.329 1.695 0.475 2.57 0.426l0.037-0.004c13.83-1.377 29.125-4.587 44.131-9.48l1.387-0.504c39.259-9.4 27.291-1.098 49.945-21.151l32.492-18.759c-0.944-11.329-1.836-26.183-1.892-35.923-2.493-18.859 6.013-25.873 14.165-44.425-15.39-35.119-20.26-35.091-12.377-66.189 50.989-21.754 73.899 66.294 55.72 97.74-8.339 14.587-15.595 11.788-21.404 27.016-6.083 16.083 2.445 9.057-8.282 29.227-25.155 45.957-22.174 23.27-57.809 38.972 0.184 8.172 1.79 16.863 4.878 25.263l0.181 0.451c8.622-0.788 32.174-19.286 49.098-26.259 122.49-50.421 37.191-39.625 111.065-100.37l-38.436-51.028c7.136 1.462 3.216-0.407 10.226 3.172l32.57 29.97c34.541 38.053-6.318 48.348-24.927 81.435-25.32 44.341-87.172 55.491-113.385 68.276-0.114 0.054-0.244 0.122-0.373 0.196-2.57 1.484-3.451 4.771-1.967 7.341 0.779 1.35 2.055 2.233 3.464 2.554l0.005 0.001c25.138 4.741 72.913-10.576 100.062-19.654l76.315-33.563c9.729-4.921 14.596-9.877 27.762-16.028 18.495-7.895 25.655-1.546 42.158-20.149l32.961-35.776z" />
<glyph unicode="crab-fill" glyph-name="crab-fill" horiz-adv-x="1205" d="M1167.36 296.55c-21.299 8.448-59.853 16.691-82.483 23.501-47.002 13.926-44.032 0.717-73.728 1.28-7.774-0.203-16.928-0.319-26.108-0.319-55.723 0-110.449 4.267-163.869 12.492l5.964-0.756c54.016 64.717 105.574 26.675 131.533 67.482-17.869-0.922-98.509-11.213-129.997-14.848-1.721-0.538-3.699-0.848-5.75-0.848-3.423 0-6.645 0.864-9.459 2.385l0.105-0.052c3.158 0.674 7.108 1.271 11.121 1.655l0.45 0.035c23.413 9.31 43.328 19.45 62.164 31.161l-1.645-0.953c24.013 18.074 13.773 10.598 30.157 37.99 24.115 40.96 115.814 61.184 107.52 213.658-20.421-29.213-35.165-63.937-41.807-101.458l-0.228-1.556c-51.717-24.972-92.081-66.643-114.758-117.889l-0.596-1.509c-12.442 0.922-110.182 0-97.28 20.89l88.269 36.147c19.558 28.672 47.821 46.592 69.069 80.896 32.512 52.634 28.979 71.322 1.843 93.133 0.755 2.14 1.601 3.965 2.596 5.694l-0.087-0.165c21.965 38.605-37.222 85.146-43.418 95.949s-25.242 15.36-28.928 16.538 1.075 16.333 1.075 16.333c-19.189 63.483-67.338 112.796-128.686 133.224l-1.413 0.408c0.657-5.782 2.986-10.924 6.484-15.042l-0.033 0.040c5.734-6.451 39.834-31.283 52.019-45.466 11.204-19.348 20.723-41.722 27.398-65.291l0.506-2.089c-3.129-0.857-6.721-1.35-10.429-1.35-6.428 0-12.509 1.48-17.923 4.119l0.243-0.107c-5.822 3.679-9.632 10.080-9.632 17.371 0 1.777 0.226 3.502 0.652 5.146l-0.031-0.142c-8.357 0.619-16.085 2.688-23.144 5.957l0.412-0.171c-10.24 5.12-5.53 17.869-5.53 17.869-2.813-0.724-6.043-1.14-9.37-1.14s-6.556 0.416-9.64 1.198l0.27-0.058c-9.37 2.611-25.6 35.226-25.6 35.226-2.391-6.304-3.775-13.592-3.775-21.203 0-15.164 5.494-29.045 14.599-39.762l-0.073 0.088c22.381-27.247 47.24-51.115 74.631-71.81l1.094-0.792c12.698-8.806 50.176-80.589 90.47-104.397 1.331-1.434 2.509-2.918 3.635-4.198-7.311-13.643-21.471-22.766-37.762-22.766-7.602 0-14.74 1.986-20.923 5.468l0.214-0.111-10.906-37.222-19.763-2.56c-14.080-34.662-15.923-20.48-38.349-44.902-58.061-61.133-62.669-41.677-96.154-27.75-39.066 15.36-11.827-1.331-28.672 23.501-9.574 13.67-1.331 25.6-33.741 13.056 25.6 2.253 9.677-22.374 5.581-41.728-15.002-2.333-28.332-5.775-41.116-10.364l1.538 0.482c-15.743 3.262-33.836 5.13-52.365 5.13-0.815 0-1.628-0.004-2.441-0.011l0.124 0.001c-5.734 17.664-25.139 40.141 0.358 42.445-32.154 6.912-22.938-3.789-30.72-18.534-15.36-26.675 11.162-6.246-25.958-27.29-21.914-12.698-16.282-17.766-40.96-11.52-33.792 9.062-25.088 58.624-27.29 61.952-9.011 16.435-10.24 6.912-20.787 19.917-3.191 4.417-6.254 9.446-8.918 14.712l-0.298 0.648-8.397 5.683c-47.565 29.491-2.202 30.413-43.571 39.27l-34.304 23.859c1.379 1.045 2.575 2.225 3.603 3.541l0.032 0.043c17.782 19.76 33.433 42.026 46.23 66.043l0.874 1.797c2.253 13.312 8.755 24.525 30.72 42.189 37.653 30.634 68.665 67.79 91.66 109.948l0.961 1.924c1.802 3.415 2.86 7.463 2.86 11.759 0 8.633-4.273 16.267-10.819 20.904l-0.080 0.054s-16.691-29.594-18.893-35.021-21.299-7.936-21.299-7.936c-0.237-8.358-2.983-16.030-7.507-22.342l0.083 0.121c-3.164-2.953-7.425-4.767-12.11-4.767-1.91 0-3.75 0.302-5.475 0.86l0.126-0.035s-2.253-13.363-4.608-21.094-30.72-20.070-30.72-20.070c-3.738 5.877-7.056 12.638-9.607 19.765l-0.223 0.715c-3.072 9.984 31.078 54.067 46.643 76.544 9.263 13.156 20.612 24.147 33.681 32.735l0.469 0.289 5.12 8.141s-7.936 5.632-30.362-5.12c-37.702-37.132-70.776-78.79-98.389-124.139l-1.605-2.837c-16.384-24.986-77.722-110.848-77.722-110.848-0.777-4.079-1.221-8.772-1.221-13.568s0.444-9.488 1.294-14.038l-0.073 0.47c3.324-16.871 11.904-31.347 23.935-42.019l0.078-0.068c23.603-15.667 13.21-5.734 19.968-37.12 1.952-12.161 5.951-23.070 11.659-32.859l-0.242 0.449c9.114-20.48 26.163-44.288 32.563-64 30.72-13.363 33.075-52.531 33.536-91.238-25.583 8.671-46.853 24.468-62.067 45.019l-0.243 0.344c-13.875 11.674-9.523 5.12-19.2 27.29-4.454 10.65-5.888 17.715-9.421 28.109-14.49 35.84-22.784 19.354-34.918 52.89-37.888 20.48-8.038 34.56-59.75 58.214 8.303 35.831 13.82 77.525 15.328 120.24l0.032 1.155c-23.209-27.017-37.339-62.419-37.339-101.121 0-16.015 2.419-31.464 6.913-46.003l-0.293 1.102c8.433-21.966 20.73-40.729 36.209-56.33l-0.010 0.010c31.488-41.523 12.902-16.282 24.115-63.13 13.421-11.835 25.483-24.547 36.347-38.252l0.466-0.609c12.032-11.264 27.034-22.221 35.021-29.696 23.757-14.797 40.96-23.296 35.84-52.173l-40.96 9.779c-38.195 14.899-53.709 9.574-65.843 43.11-8.038 21.043-1.229 16.691-12.954 38.502-6.003 8.686-11.009 18.694-14.512 29.383l-0.234 0.825c-35.84 7.68-24.218 12.902-42.394 31.283-14.899 15.77-21.606 11.418-42.65 25.6-24.422 18.022-45.875 43.878-73.267 64.205 12.083-51.866 30.72-22.067 84.48-113.766 14.797-11.878 18.586-16.538 37.581-31.232s19.405-12.851 22.221-40.499c11.137-11.557 21.704-23.91 31.515-36.868l0.741-1.020c37.376-18.637 16.282-27.648 55.347-42.854 29.801-5.941 55.067-12.839 79.628-21.252l-4.313 1.284c-8.96-5.786-104.96-5.53-134.963-29.030l66.56-3.635c1.401 0.024 3.054 0.037 4.711 0.037 30.626 0 60.169-4.636 87.966-13.245l-2.104 0.561c7.168-2.509 29.389-11.059 36.506-13.619 29.696-14.080 13.056-1.843 20.48-21.76l-140.032-7.68c-21.835-11.406-47.69-18.097-75.109-18.097-5.301 0-10.543 0.25-15.715 0.739l0.661-0.050c-34.355-16.794-82.381 1.229-102.707-31.13-8.584-19.619-13.579-42.482-13.579-66.511 0-20.203 3.531-39.581 10.009-57.551l-0.372 1.183c22.323 132.454-3.789 81.92 102.4 112.333 32.205 24.986 25.907 22.477 75.264 19.61 31.846 4.762 54.221 15.36 91.699 19.968 32.512 3.686 66.099 8.090 97.28 11.008 0.124-1.399 0.195-3.026 0.195-4.67 0-13.394-4.71-25.688-12.563-35.316l0.080 0.101c-7.46 1.34-16.046 2.105-24.812 2.105-41.815 0-79.558-17.429-106.363-45.419l-0.051-0.053c-30.72-32.051-18.893 5.99-75.264-41.882-34.038-22.224-56.219-60.135-56.219-103.227 0-7.177 0.615-14.21 1.796-21.049l-0.104 0.731c12.032-43.11 47.206-68.096 67.584-7.731 30.72 68.762 7.066 46.797 56.32 85.504 59.75 46.080 51.507 67.635 64.563 79.36 17.142 1.5 32.93 4.671 48.035 9.39l-1.596-0.43c38.163 13.366 82.159 21.086 127.959 21.086 15.22 0 30.24-0.853 45.017-2.513l-1.814 0.166 3.021-0.512 13.414-5.12c0.881-0.327 1.899-0.516 2.961-0.516 2.179 0 4.172 0.796 5.704 2.113l-0.012-0.010 6.298 5.12c1.012 0.865 2.231 1.519 3.571 1.88l0.064 0.015c20.94 4.531 44.997 7.125 69.659 7.125 0.854 0 1.708-0.003 2.561-0.009l-0.131 0.001c62.515 5.12 40.96 11.52 83.968-7.373l56.934-12.186c4.045-17.306 9.83-39.782 14.438-54.323 5.12-29.184 21.299-35.533 42.24-59.29-5.888-59.597-13.107-61.901 13.466-104.346 85.811-7.731 77.466 134.144 35.482 172.134-19.302 17.664-28.672 10.24-44.595 29.85-16.691 20.992-0.717 14.643-26.266 39.424-59.187 56.32-43.93 23.91-104.141 30.054-3.162 10.544-4.981 22.66-4.981 35.201 0 1.917 0.043 3.824 0.127 5.721l-0.010-0.27c13.107 2.97 56.832-13.158 85.146-15.36 205.21-15.923 73.984-40.96 212.275-95.693l-31.949-93.901c9.83 5.632 5.12 0.87 13.568 9.626l33.792 60.262c32.819 73.165-32.512 68.813-75.878 109.005-58.675 53.709-155.443 40.448-200.346 46.797-3.565 0.49-6.39 3.159-7.107 6.601l-0.009 0.055c-0.109 0.507-0.171 1.090-0.171 1.687 0 3.057 1.634 5.733 4.076 7.201l0.038 0.021c37.932 12.788 81.617 20.168 127.026 20.168 10.667 0 21.239-0.407 31.701-1.207l-1.39 0.085 128.87-13.107c16.742-2.611 26.266-7.578 48.742-10.24 31.13-2.816 38.656 10.24 71.987-9.626l65.741-37.222z" />
<glyph unicode="close" glyph-name="close" d="M1024 856.913l-408.913-408.913 408.913-408.913-103.087-103.087-408.913 408.913-408.913-408.913-103.087 103.087 408.913 408.913-408.913 408.913 103.087 103.087 408.913-408.913 408.913 408.913z" />
<glyph unicode="chevron-up" glyph-name="chevron-up" horiz-adv-x="1648" d="M1646.584 133.105l-822.584 822.584-822.584-822.584 192.794-192.794 629.79 629.79 629.79-629.79z" />
<glyph unicode="chevron-left" glyph-name="chevron-left" horiz-adv-x="640" d="M636 840l-392-392 392-392-120-120-512 512 512 512z" />
<glyph unicode="chevron-down" glyph-name="chevron-down" horiz-adv-x="1643" d="M1644.084 762.895l-822.584-822.584-822.584 822.584 192.794 192.794 629.79-629.79 629.79 629.79z" />
<glyph unicode="chevron-" glyph-name="chevron-right" horiz-adv-x="640" d="M124 960l512-512-512-512-120 120 392 392-392 392z" />
<glyph unicode="check" glyph-name="check" horiz-adv-x="1312" d="M1106.56 960l-614.4-614.4-286.72 286.72-204.8-204.8 491.52-491.52 819.2 819.2z" />
<glyph unicode="cart" glyph-name="cart" horiz-adv-x="910" d="M910.222 694.5c0 24.618-7.987 48.572-22.756 68.267l-130.844 174.478c-5.296 7.065-12.169 12.8-20.070 16.75-7.896 3.95-16.612 6.006-25.441 6.006h-512c-8.832 0-17.542-2.056-25.441-6.006s-14.771-9.684-20.070-16.75l-130.844-174.478c-14.771-19.694-22.756-43.649-22.756-68.267v-587.833c0-45.261 17.981-88.673 49.987-120.678s75.416-49.988 120.68-49.988h568.889c45.261 0 88.673 17.983 120.678 49.988s49.988 75.418 49.988 120.678v587.833zM796.444 618.667v-455.111c0-30.174-11.986-59.113-33.326-80.452s-50.278-33.326-80.452-33.326h-455.111c-30.176 0-59.116 11.986-80.453 33.326s-33.325 50.278-33.325 80.452v455.111h682.667zM773.689 732.444h-637.156l91.022 113.778h455.111l91.022-113.778zM682.667 448c0 15.088-5.996 29.558-16.663 40.227s-25.139 16.662-40.226 16.662c-15.087 0-29.559-5.994-40.226-16.662s-16.663-25.139-16.663-40.227c0-30.176-11.987-59.113-33.325-80.452s-50.277-33.326-80.453-33.326c-30.176 0-59.116 11.986-80.453 33.326s-33.325 50.277-33.325 80.452c0 15.088-5.994 29.558-16.662 40.227s-25.139 16.662-40.227 16.662c-15.088 0-29.558-5.994-40.227-16.662s-16.662-25.139-16.662-40.227c0.010-44.999 13.361-88.986 38.365-126.396 25.005-37.416 60.541-66.571 102.115-83.792s87.321-21.726 131.456-12.948c44.135 8.772 84.677 30.441 116.501 62.254 42.678 42.667 66.662 100.534 66.674 160.882z" />
<glyph unicode="call" glyph-name="call" d="M1023.927 193.317v-154.185c0-0.083 0-0.182 0-0.28 0-56.837-46.075-102.912-102.912-102.912-3.296 0-6.557 0.155-9.774 0.458l0.411-0.031c-167.106 18.585-318.055 74.912-448.302 160.232l3.886-2.389c-125.098 80.199-228.38 183.341-306.346 304.336l-2.39 3.961c-83.321 126.61-139.771 277.988-157.657 440.969l-0.405 4.544c-0.259 2.74-0.407 5.924-0.407 9.143 0 56.785 46.025 102.821 102.806 102.839h154.479c0.329 0.004 0.718 0.006 1.107 0.006 51.704 0 94.502-38.129 101.811-87.803l0.068-0.559c7.272-53.959 19.896-102.68 37.577-148.899l-1.517 4.515c4.184-10.745 6.608-23.184 6.608-36.189 0-28.178-11.382-53.698-29.799-72.214l0.004 0.004-65.39-65.243c74.653-129.374 179.334-233.867 304.893-306.179l3.989-2.118 65.39 65.243c18.609 18.35 44.18 29.683 72.397 29.683 13.012 0 25.462-2.41 36.926-6.808l-0.706 0.238c41.786-16.132 90.61-28.732 141.254-35.606l3.423-0.38c50.343-7.234 88.605-50.073 88.605-101.849 0-0.862-0.011-1.722-0.032-2.58l0.002 0.127z" />
<glyph unicode="calendar" glyph-name="calendar" d="M256 512h128v-128h-128zM384 320h-128v-128h128zM448 512h128v-128h-128zM576 320h-128v-128h128zM640 512h128v-128h-128zM768 320h-128v-128h128zM256 960h128v-192h256v192h128v-192h256v-832h-1024v832h256zM896 640h-768v-576h768z" />
<glyph unicode="arrow-right-longest" glyph-name="arrow-right-longest" horiz-adv-x="3686" d="M3072-64v204.8h102.4v102.4h102.4v102.4h-3276.8v204.8h3276.8v102.4h-102.4v102.4h-102.4v204.8h204.8v-102.4h102.4v-102.4h102.4v-102.4h102.4v-102.4h102.4v-204.8h-102.4v-102.4h-102.4v-102.4h-102.4v-102.4h-102.4v-102.4z" />
<glyph unicode="arrow-right-longer" glyph-name="arrow-right-longer" horiz-adv-x="2457" d="M1843.098-64v204.8h102.4v102.4h102.4v102.4h-2048v204.8h2048v102.4h-102.4v102.4h-102.4v204.8h204.8v-102.4h102.4v-102.4h102.4v-102.4h102.4v-102.4h102.4v-204.8h-102.4v-102.4h-102.4v-102.4h-102.4v-102.4h-102.4v-102.4z" />
<glyph unicode="arrow-right" glyph-name="arrow-right" horiz-adv-x="2304" d="M1920-64v128h128v128h128v128h128v256h-128v128h-128v128h-128v128h-256v-256h128v-128h-1792v-256h1792v-128h-128v-256z" />
<glyph unicode="arrow-left-longest" glyph-name="arrow-left-longest" horiz-adv-x="3686" d="M614.298 960.102v-204.8h-102.4v-102.4h-102.4v-102.4h3276.8v-204.8h-3276.8v-102.4h102.4v-102.4h102.4v-204.8h-204.8v102.4h-102.4v102.4h-102.4v102.4h-102.4v102.4h-102.4v204.8h102.4v102.4h102.4v102.4h102.4v102.4h102.4v102.4z" />
<glyph unicode="arrow-left-longer" glyph-name="arrow-left-longer" horiz-adv-x="2457" d="M614.298-64v204.8h-102.4v102.4h-102.4v102.4h2048v204.8h-2048v102.4h102.4v102.4h102.4v204.8h-204.8v-102.4h-102.4v-102.4h-102.4v-102.4h-102.4v-102.4h-102.4v-204.8h102.4v-102.4h102.4v-102.4h102.4v-102.4h102.4v-102.4z" />
<glyph unicode="arrow-left" glyph-name="arrow-left" horiz-adv-x="2304" d="M639.872 960.128v-256h-128v-128h1792v-256h-1792v-128h128v-256h-256v128h-128v128h-128v128h-128v256h128v128h128v128h128v128z" />
</font>
</defs>
</svg>
